HOLA A TODOS - ZONAPLUS CAMBIARÁ DE DUEÑO Y POR ESTA RAZÓN SE APLICARAN NUEVAS POLÍTICAS QUE AFECTARÁN A MUCHOS USUARIOS

Muerte en Tombstone [BDrip 1080][Ac3 (es-ES);DTS (en-US)][Western][2013]

TV, Peliculas y series | Creado: 29.09.2013 a las 14:25 hs.

Muerte en Tombstone

Cita:

Título original Dead in Tombstone
Año 2012
Duración 100 min.
País [Estados Unidos] Estados Unidos
Director Roel Reiné
Guión Brendan Cowles, Shane Kuhn
Música Hybrid
Fotografía Roel Reiné
Reparto Danny Trejo, Anthony Michael Hall, Mickey Rourke, Dina Meyer, Richard Dillane, Catalina Grama, Colin Mace, Ovidiu Niculescu, Ronan Summers, Edward Akrout, Radu Micu, James Jordan, Daniel Lapaine
Productora Universal 1440 Entertainment / CC Capital Arts Entertainment SRL
Género Acción. Fantástico. Western



SINOPSIS: Guerrero Hernández (Trejo) es el líder indiscutible de los Blackwater Gang. Tras sacar a su hermanastro Red de la cárcel, su plan es saquear la población minera de Edendale, pero es asesinado por el traicionero Red. Después de hacer un trato con el diablo, Guerrero regresa a la vida para vengarse. Las calles del pueblo, que ahora se llama Tombstone, no tardarán en convertirse en ríos de sangre. (FILMAFFINITY)


[SPOILER]
Format : Matroska
Format version : Version 4 / Version 2
File size : 11.7 GiB
Duration : 1h 39mn
Overall bit rate : 16.8 Mbps
Movie name : Muerte en Tombstone 1080 Baalbeith
Encoded date : UTC 2013-09-29 10:37:47
Writing application : mkvmerge v6.3.0 (‘You can’t stop me!’) built on Jun 28 2013 20:09:41
Writing library : libebml v1.3.0 + libmatroska v1.4.0

Video
ID : 1
Format : AVC
Format/Info : Advanced Video Codec
Format profile : High@L4.1
Format settings, CABAC : Yes
Format settings, ReFrames : 4 frames
Codec ID : V_MPEG4/ISO/AVC
Duration : 1h 39mn
Bit rate : 14.6 Mbps
Width : 1 920 pixels
Height : 1 080 pixels
Display aspect ratio : 16:9
Frame rate : 23.976 fps
Color space : YUV
Chroma subsampling : 4:2:0
Bit depth : 8 bits
Scan type : Progressive
Bits/(Pixel*Frame) : 0.293
Stream size : 10.2 GiB (87%)
Title : Muerte en Tombstone 1080 Baalbeith
Writing library : x264 core 138 r2358 9e941d1
Encoding settings : cabac=1 / ref=4 / deblock=1:-3:-3 / analyse=0x3:0x133 / me=umh / subme=10 / psy=1 / psy_rd=1.05:0.00 / mixed_ref=1 / me_range=32 / chroma_me=1 / trellis=2 / 8x8dct=1 / cqm=0 / deadzone=21,11 / fast_pskip=1 / chroma_qp_offset=-2 / threads=12 / lookahead_threads=2 / sliced_threads=0 / nr=0 / decimate=1 / interlaced=0 / bluray_compat=0 / constrained_intra=0 / bframes=8 / b_pyramid=2 / b_adapt=2 / b_bias=0 / direct=3 / weightb=1 / open_gop=0 / weightp=2 / keyint=240 / keyint_min=23 / scenecut=40 / intra_refresh=0 / rc_lookahead=60 / rc=crf / mbtree=0 / crf=17.7 / qcomp=0.60 / qpmin=0 / qpmax=69 / qpstep=4 / vbv_maxrate=50000 / vbv_bufsize=50000 / crf_max=0.0 / nal_hrd=none / ip_ratio=1.40 / pb_ratio=1.30 / aq=1:0.90
Language : Spanish
Default : Yes
Forced : No

Audio #1
ID : 2
Format : AC-3
Format/Info : Audio Coding 3
Mode extension : CM (complete main)
Format settings, Endianness : Big
Codec ID : A_AC3
Duration : 1h 39mn
Bit rate mode : Constant
Bit rate : 384 Kbps
Channel(s) : 6 channels
Channel positions : Front: L C R, Side: L R, LFE
Sampling rate : 48.0 KHz
Bit depth : 16 bits
Compression mode : Lossy
Stream size : 274 MiB (2%)
Title : Ac3 5.1@384 kbps
Language : Spanish
Default : Yes
Forced : No

Audio #2
ID : 3
Format : DTS
Format/Info : Digital Theater Systems
Codec ID : A_DTS
Duration : 1h 39mn
Bit rate mode : Constant
Bit rate : 1 510 Kbps
Channel(s) : 6 channels
Channel positions : Front: L C R, Side: L R, LFE
Sampling rate : 48.0 KHz
Bit depth : 24 bits
Compression mode : Lossy
Stream size : 1.05 GiB (9%)
Title : DTS 5.1@1510 kbps
Language : English
Default : No
Forced : No

Text #1
ID : 4
Format : PGS
Muxing mode : zlib
Codec ID : S_HDMV/PGS
Codec ID/Info : The same subtitle format used on BDs/HD-DVDs
Title : Spanish (PGS)
Language : Spanish
Default : No
Forced : No

Text #2
ID : 5
Format : PGS
Muxing mode : zlib
Codec ID : S_HDMV/PGS
Codec ID/Info : The same subtitle format used on BDs/HD-DVDs
Title : English (PGS)
Language : English
Default : No
Forced : No

Text #3
ID : 6
Format : UTF-8
Codec ID : S_TEXT/UTF8
Codec ID/Info : UTF-8 Plain Text
Title : Spanish (Planos)
Language : Spanish
Default : No
Forced : No

Text #4
ID : 7
Format : UTF-8
Codec ID : S_TEXT/UTF8
Codec ID/Info : UTF-8 Plain Text
Title : English (Planos)
Language : English
Default : No
Forced : No

[/SPOILER]

Tamaño:11,7Gb
Formato / Contenedor: Matroska
Video Codec: AVC
Profile: High@L4.1 Marcos:4
Resolución: 1920×1080
Audio 1: Spanish Ac3 384 Kbps 6 channels
Audio 2: English DTS 1510 Kbps 6 channels
Subtitulos:Spanish,English.

Servidor(es) : Rapidgator,DDLStorage,Uploaded.net,Bitshare,Tusfil es,Putlocker (98%-2)…INTERCAMBIABLES.
Formato Compresión : Comprimido y partido en 26 partes con winrar
Archivos recuperación : Contiene 3 archivos de recuperación rar (Se abren con winrar)
Verificación : 1 archivo verificador
Sample:SI Contiene sample de aprx.100-150mb para ver calidad audio/video/subs,sincronizacion etc.
Capitulos:SI contiene capitulos.
Recuperacion:SI, cada archivo consta de un 5% de recuperacion.

En Putlocker faltan los 2 primeros archivos,los cuales podeis descargar desde el resto de servidores,son intercambiables.

Montaje,sincronizacion-audio-subtitulos: Baalberith

Descargar Muerte en Tombstone 1080p

Un saludo.

      139 Visitas

Deja un comentario

:smile: :grin: :razz: :lol: :wink: :mrgreen: :neutral: :roll: :shock: :???: :cool: :oops: :twisted: :evil: :eek: :mad: :sad: :cry: :!: :idea: :arrow:

Todos los derechos reservados Copyright © 2014 - ZONAPLUS.NET